影子论坛

搜索
夜间模式◐

野培新《春风花草香》(500MB)

[复制链接]
荣耀黄金Ⅰ   克劳德  · 2019-10-8 14:36:55 · 显示全部楼层 · 阅读
本帖最后由 克劳德 于 2019-10-8 14:38 编辑

201908181015491231-5271748.jpg

f7cd7e3c269759ee7cc8e212bcfb43166c22df0c.jpg

专辑名称:春风花草香
专辑艺人:野培新二胡
出版公司:北京东方影音公司
唱片公司:北京龙源之声国际文化传播有限公司
条形码:9787881028323
发行时间:2018年8月
资源格式:正版CD低速原抓WAV+CUE

专辑简介:

特邀民乐演奏家配乐、录音大师录制:
箜篌:吴琳
古筝:张璐 田月
笛箫:丁晓逵
大提琴:田维扬
乐团:爱乐乐团
编曲:何滨 孙海倪
录音/混音:张小安 陈庆
Master:李小沛

小野的诗意二胡,可音色缠绵可柔美伤怀可委婉含蓄……
百转千回的旋律,有如春风吹送的芳香,娓娓道来。
二胡作为独奏乐器,经过历史不断推动,在技法与表现方式上的个性愈加丰富,《春风花草香》以中国古典诗词为基调,将二胡的千面风姿展现的淋漓尽致。
据今有一千多年历史的二胡,一步步随同历史变迁走至今日,环顾民族传统音乐种类。皮黄、梆子、高腔、滩黄、粤调、川调,以及各地小曲,丝竹合奏...等民族乐曲作品分类中,都能寻得二胡的身影;如其他乐器一样,粗糙与高雅全在演奏者的思想与技术以及作品的组织;《春风花草香》用不同类型的作品将二胡自身所具有的魅力与特性呈现,选曲多样化,演奏技巧丰富高超,这是一张深情而富有审美情趣的二胡专辑。




Exact Audio Copy V1.3 from 2. September 2016

EAC 抓取日志文件从5. 九月 2018, 7:24

野培新 / 春风花草香

使用驱动器  :HL-DT-STDVD+-RW GH50N   Adapter: 1  ID: 0

读取模式      : 可靠Secure
使用精确流     : 是
清空音频缓存    : 是
使用 C2 指示器 : 否

读取偏移校正:               : 0
读取 Lead-In 和 Lead-Out : 否
用静音填充抓取中丢失偏移的采样       : 是
去除首尾静音块               : 否
在CRC 计算中使用了空样本       : 是
已用接口                  : Win NT 及 2000 本地 Win32 接口

所用输出模式: : 内部 WAV 函数
样本格式    : 44.100 Hz; 16 Bit; 立体声


已抓取 CD 的 TOC

     音轨 |    起始    |    长度    |  起始扇区  |  结束扇区  
    --------------------------------------------
      1 |  0:00.00 |  4:53.07 |      0 |  21981
      2 |  4:53.07 |  4:24.42 |  21982 |  41823
      3 |  9:17.49 |  4:38.59 |  41824 |  62732
      4 | 13:56.33 |  5:01.09 |  62733 |  85316
      5 | 18:57.42 |  4:42.30 |  85317 | 106496
      6 | 23:39.72 |  4:34.65 | 106497 | 127111
      7 | 28:14.62 |  4:25.22 | 127112 | 147008
      8 | 32:40.09 |  3:50.74 | 147009 | 164332
      9 | 36:31.08 |  5:31.45 | 164333 | 189202
     10 | 42:02.53 |  4:50.09 | 189203 | 210961


范围状态及错误

已选择范围

     文件名 F:\炫音音乐论坛原抓上传区\野培新 - 春风花草香.wav

     峰值电平 97.5 %
     抓取速度 5.0 X
     范围质量 100.0 %
     复制 CRC 4F720107
     复制成功

没有错误发生

状态报告结尾



特别说明:
本站的APE、WAV、镜像(用ULtraISO处理)高品质无损音乐均由网友采用正版原盘抓轨。
本专辑仅限试听,严禁商用,如喜欢请购买正版!
请下载后24小时内请予删除,否则后果自负!本站不承担任何法律责任。
本专辑整理自互联网,版权归唱片公司及歌手所有,如有侵权请联系站长删除。



游客,如果您要查看本帖隐藏内容请回复



回复

使用道具 举报

您需要登录后才可以回帖 登录 | 注册

本版积分规则

快速回复 返回顶部 返回列表